百度云資源論壇

 找回密碼
 立即注冊
打印 上一主題 下一主題

反饋 Feedback.2019.1080p.BluRay.x264.DTS-HD.MA.5.1-FGT 9.07GB

[復制鏈接]
跳轉到指定樓層
樓主
帖子完整標題:反饋 Feedback.2019.1080p.BluRay.x264.DTS-HD.MA.5.1-FGT 9.07GB




◎譯  名 反饋
◎片  名 Feedback
◎年  代 2019
◎產  地 西班牙
◎類  別 驚悚
◎語  言 英語
◎上映日期 2019-03-01(西班牙)
◎IMDb評分  5.4/10 from 364 users
◎導  演 Pedro C. Alonso
◎編  劇 Pedro C. Alonso / 阿爾貝托·馬里尼 Alberto Marini
◎主  演 埃迪·馬森 Eddie Marsan
       保羅·安德森 Paul Anderson
       伊萬娜·巴克羅 Ivana Baquero
       奧利弗·庫珀史密斯 Oliver Coopersmith
       Alexis Rodney
       安東尼·海德 Anthony Head
       Alana Boden
       Nacho Aldeguer
       理查德·布雷克 Richard Brake


◎標  簽 西班牙 | 驚悚 | 英國 | 電影 | PedroCAlonso

◎簡  介  

  London. Jarvis Dolan is a charismatic host of a radio show named "The Grim Reality", about news and actuality. Loudmouth, fun and ruthless in his speeches and comments, Jarvis is the most important radio star of the moment, entertaining the audience throughout the early morning with his intelligent programs on hot topics. Previous the job, Dolan is required by his boss Norman Burgess to have a brief talk about the fate of the program by the recent poor ratings, that reporting Dolan to accept to his former partner, Andrew Wilde, as co-host, in an attempt to improvement the show. Going they two to the studio, Wilde meets Dolan's assistants, Anthony and Claire, who work making the show behind the micros. But when Dolan tries to start the program while he waits for Wilde, who had to go out a little before to back more later, he finds suddenly trapped by the circumstances: two masked men have assaulted the radio station at gunpoint and kidnapped Anthony and Claire, making him to keep the ...
Video
ID                                       : 1
Format                                   : AVC
Format/Info                              : Advanced Video Codec
Format settings                          : CABAC / 4 Ref Frames
Format settings, CABAC                   : Yes
Format settings, Reference frames        : 4 frames
Codec ID                                 : V_MPEG4/ISO/AVC
Duration                                 : 1 h 37 min
Bit rate                                 : 11.5 Mb/s
Width                                    : 1 920 pixels
Height                                   : 804 pixels
Display aspect ratio                     : 2.40:1
Frame rate mode                          : Constant
Frame rate                               : 24.000 FPS
Color space                              : YUV
Chroma subsampling                       : 4:2:0
Bit depth                                : 8 bits
Scan type                                : Progressive
Bits/(Pixel*Frame)                       : 0.310
Stream size                              : 7.82 GiB (86%)
Title                                    : Feedback.2019.1080p.BluRay.x264.DTS-HD.MA.5.1-FGT
Writing library                          : x264 core 148 r2748 97eaef2
Encoding settings                        : cabac=1 / ref=4 / deblock=1:-2:-2 / analyse=0x3:0x113 / me=umh / subme=9 / psy=1 / psy_rd=1.00:0.15 / mixed_ref=1 / me_range=16 / chroma_me=1 / trellis=2 / 8x8dct=1 / cqm=0 / deadzone=21,11 / fast_pskip=1 / chroma_qp_offset=-3 / threads=72 / lookahead_threads=3 / sliced_threads=0 / nr=0 / decimate=1 / interlaced=0 / bluray_compat=0 / constrained_intra=0 / bframes=3 / b_pyramid=2 / b_adapt=1 / b_bias=0 / direct=3 / weightb=1 / open_gop=0 / weightp=2 / keyint=250 / keyint_min=25 / scenecut=40 / intra_refresh=0 / rc_lookahead=50 / rc=2pass / mbtree=1 / bitrate=11500 / ratetol=1.0 / qcomp=0.60 / qpmin=0 / qpmax=69 / qpstep=4 / cplxblur=20.0 / qblur=0.5 / vbv_maxrate=31250 / vbv_bufsize=31250 / nal_hrd=none / filler=0 / ip_ratio=1.40 / aq=1:1.00
Language                                 : English
Default                                  : Yes
Forced                                   : No

Audio
ID                                       : 2
Format                                   : DTS XLL
Format/Info                              : Digital Theater Systems
Commercial name                          : DTS-HD Master Audio
Codec ID                                 : A_DTS
Duration                                 : 1 h 37 min
Bit rate mode                            : Variable
Bit rate                                 : 1 821 kb/s
Channel(s)                               : 6 channels
Channel layout                           : C L R Ls Rs LFE
Sampling rate                            : 48.0 kHz
Frame rate                               : 93.750 FPS (512 SPF)
Bit depth                                : 16 bits
Compression mode                         : Lossless
Stream size                              : 1.24 GiB (14%)
Title                                    : Feedback.2019.1080p.BluRay.x264.DTS-HD.MA.5.1-FGT
Language                                 : English
Default                                  : Yes
Forced                                   : No

Text #1
ID                                       : 3
Format                                   : UTF-8
Codec ID                                 : S_TEXT/UTF8
Codec ID/Info                            : UTF-8 Plain Text
Duration                                 : 1 h 30 min
Bit rate                                 : 66 b/s
Count of elements                        : 1201
Stream size                              : 43.6 KiB (0%)
Title                                    : English-SRT
Language                                 : English
Default                                  : Yes
Forced                                   : No

Text #2
ID                                       : 4
Format                                   : PGS
Muxing mode                              : zlib
Codec ID                                 : S_HDMV/PGS
Codec ID/Info                            : Picture based subtitle format used on BDs/HD-DVDs
Duration                                 : 1 h 30 min
Bit rate                                 : 31.2 kb/s
Count of elements                        : 1914
Stream size                              : 20.1 MiB (0%)
Title                                    : English-PGS
Language                                 : English
Default                                  : No
Forced                                   : No

Menu
00:00:00.000                             : en:Chapter 1
00:09:05.000                             : en:Chapter 2
00:15:57.582                             : en:Chapter 3
00:23:20.874                             : en:Chapter 4
00:32:24.332                             : en:Chapter 5
00:44:50.916                             : en:Chapter 6
00:50:41.707                             : en:Chapter 7
01:00:24.291                             : en:Chapter 8
01:06:35.999                             : en:Chapter 9
01:13:53.832                             : en:Chapter 10
01:21:12.291                             : en:Chapter 11
01:31:31.457                             : en:Chapter 12



                                                                                                                                                                                                        
                                                                                                                                                                                                                                                                                                                                                                                                                                                                                                                                                                                                                                                                                                                                                                                                                                                      
0c783df31ce2328d8ba90acfaeb416f1.torrent (45.89 KB)


回復

使用道具 舉報

小黑屋|百度云資源分享吧 ( 京ICP備15014721號-2 )

本網站所有資源來自網絡,如無意中侵犯了您的權益,請發郵件至 [email protected],立即清除相關鏈接

GMT+8, 2020-1-23 13:18 , Processed in 0.082493 second(s), 20 queries .

Powered by Discuz! X3.2

© 2001-2013 Comsenz Inc.

快速回復 返回頂部 返回列表
体彩481开奖结果